Ffmpeg Mjpeg Input

a HDMI-Only. /some_mjpeg. avi D10 into QuickTime Wrapping ffmpeg -i -vcodec copy -acodec pcm_s16le -vtag mx5p -vbsf imxdump output. 000 -an -y a_video. You can test this first on a sample file to see if it works. mpg $ ffmpeg -i Sherlock\ S01E01\ sample. If you want to encode in mjpeg with highest quality command line is: ffmpeg -r 25 -start_number 1 -f image2 -i "img_%04d. Minimize audio input latency? I have a command for sending the input to the output, it's about as basic as it gets: ffmpeg -f alsa -acodec pcm_s32le -i hw:3,0 -f pulse out. Using the command ffmpeg -f video4linux2 -list_formats all -i /dev/video0 to retrieve the sizes of video available lists the same set of sizes for h264 and mjpeg. mjpeg': Metadata: encoder : Lavf57. mkv -target pal-dvd -b:v 6450k -pass 2 out. To force the frame rate of the output file to 24 fps: ffmpeg -i input. But that doesn't seem to work for MJPEG. mkv -vf scale=1280:720 -c:a copy -c:v h264_mluenc -b:v 2M output1. Ad the @c3voc we're using VGA/DVI-Grabber Devices that can convert between Analog and Digital or vice-versa, enforce wanted EDID Parameters and also deliver an MJPEG-Stream of the things happening on the Video-Input. mkv -vf scale=1280x720 output. Today I had an interesting problem with `ffmpeg` and Video-Timing. As I flick through the resulting images sections of the frames (corresponding the inputs to the hstack) clearly remain the same between frames sometimes. wav -c:a libfdk_aac -profile:a aac_he -b:a 64k output. ffmpeg normally checks the console input, for entries like "q" to stop and "?" to give help, while performing operations. The filename to provide to the input device is a source device or the string "default". Please note that this filter is auto-inserted for MPEG-TS (muxer mpegts) and raw H. flv but actually the video. for blueimp/wdio. I have a command for routing audio input to output, it's about as basic as it gets: ffmpeg -f alsa -acodec pcm_s32le -i hw:3,0 -f pulse out. Which may happen if at the receiving end, ffmpeg thinks there are two frames in a packet. Then the tuning would have to be done for your camera's exact requirements, such as probably change the audio codec from mp3 to PCM, and also the resolution. See full list on noah. 101 Stream #0:0: Video: mjpeg, yuvj422p, 1280x720, q=2-31, 25. If you instead had a webcam that only supported mjpeg input, or if you needed to add text overlay to the video, you would have to recompile FFmpeg. I followed the patch to get a version of ffmpeg that also works with v4l2 to input my hdmi stream from my desktop and stream to twitch. /ffmpeg -i a_video. With the Raspberry Pi, you'll want to use the built in hardware encoder, h264_omx. ffmpeg -i input. h264 ffmpeg -y -vsync 0 -c:v h264_mludec -i input_1920x1080. android调用摄像头拍照. This restriction is not to please or annoy users, but imposed by lawyers. mkv $ ffmpeg -f v4l2 -framerate 25 -video_size 640x480 \ -i /dev/video0 -t 00:00:10 output. Any player based on ffmpeg/libav will likely fail if ffmpeg does. We can check what devices are available on our machine using the following command: ffmpeg -list_devices true -f dshow -i dummy. mov -c:v mjpeg -q:v 3 -an output. When using ffmpeg to compress a video, I recommend using the libx264 codec, from experience it has given me excellent quality for small video sizes. mkv -target pal-dvd -b:v 6450k -pass 1 out. mkv -target pal-dvd -b:v 6450k -pass 2 out. ffmpeg -i input. #9287: MJPEG regression -----+----- Reporter: Carl Eugen | Type: defect Hoyos | Status: new | Priority: important Component: avcodec | Version: git- Keywords: mjpeg. It currently includes 6 different types of output streaming which are mjpeg, jpeg via socket. This is a thin wrapper around FFmpeg and has no other dependencies. mp4 If the file contains codecs that are well supported in a TS container, for example H. The lower your x, the better is the quality (range 2 to 32, fractions allowed). then hardcode subtitle in mp4 : ffmpeg -i tmp. There are felt one million additional options to change the output format. wav -c:a libfdk_aac -profile:a aac_he -b:a 64k output. It is the successor of uvc-streamer, a Linux-UVC streaming application with Pan/Tilt. Default fps is 25 but yours shows as 50. So, we're going to use the dshow FFmpeg input source. I am using FFmpeg to stream from a webcam and a pulseaudio source to an RTMP server. /some_mjpeg. Please provide an input sample that allows to reproduce quality issues for the output file. mkv -vf scale=1280:720 -c:a copy -c:v h264_mluenc -b:v 2M output1. 0; if you have an older version, please update. jpg 2>&1 | grep clone $ # no output - no threads cloned. MJPEG is a video codec wherein each video frame is essentially a JPEG image. MJPG-streamer takes JPGs from Linux-UVC compatible webcams, filesystem or other input plugins and streams them as M-JPEG via HTTP to webbrowsers, VLC and other software. Community ♦. Using the command ffmpeg -f video4linux2 -list_formats all -i /dev/video0 to retrieve the sizes of video available lists the same set of sizes for h264 and mjpeg. Input devices are configured elements in FFmpeg which enable accessing the data coming from a multimedia device attached to your system. jpg -vf format=yuv420p -f v4l2 /dev/video0 Webcam → ffmpeg → Virtual. I'm using such ffserver. mp4 -vf subtitles=subs. Use ffmpeg to convert an audio file to VBR AAC in an M4A (MP4) container: ffmpeg -i input. I know that argument order has an effect in FFmpeg. Now run ffmpeg. Lossless h264. 0 -f v4l2 /dev/video0 Video file (MP4) to virtual camera ffmpeg -re -i input. mkv Note that in the above example the shortest option for overlay filter is used to end the output video at the length of the shortest input file, which in this case is input. ffmpeg -f v4l2 -input_format mjpeg -i /dev/video0 -c:v copy output. mkv -vf scale=1280x720 output. We usually clamp those devices between a Speaker-Notebook and a Projector, so that we can have ie. ffm Format rtp VideoCodec libx264 VideoFrameRate 15 VideoBufferSize 40 VideoBitRate 3000. jpg" -vcodec mjpeg -qscale 1 video. Today I had an interesting problem with `ffmpeg` and Video-Timing. See the options -qscale:v or the alias -q:v for ffmpeg. To use this feature, all you need to do is set the config mjpegUrl to contain "ffmpeg" to use your CPU to generate the MJPEG stream with FFmpeg. 0 # This is the input feed where FFmpeg will send File. It is widely used for format transcoding, basic editing (trimming and. The individual frames can be extracted without loss, e. 264 (muxer h264) output formats. by: @example: ffmpeg -i. I change nothing with. avi D10 into QuickTime Wrapping ffmpeg -i -vcodec copy -acodec pcm_s16le -vtag mx5p -vbsf imxdump output. 4 seconds delay. avi -c:v copy. Having said that, the MMAL decoder would probably only need a half-dozen lines of code added to support it, mainly setting up format_in->encoding in ffmmal_init_decoder, and a FFMMAL_DEC definition at the end of the file. mkv -target pal-dvd -b:v 6450k -pass 2 out. MJPEG stream from Webcam using FFServer and FFMpeg - ffserver. The lower your x, the better is the quality (range 2 to 32, fractions allowed). This is a thin wrapper around FFmpeg and has no other dependencies. Input devices are configured elements in FFmpeg which enable accessing the data coming from a multimedia device attached to your system. /some_mjpeg. Then, it will display the list:. 264 encoding the -crf and -preset flags generate higher quality. mkv Note that in the above example the shortest option for overlay filter is used to end the output video at the length of the shortest input file, which in this case is input. You can avoid the MJPEG cover art by using properly ordered selective mapping:-map 0 -map -v -map V What this does:-map 0 Map all streams from input 0 (which is the first input per ffmpeg command). Lossless h264-i input. mkv -target pal-dvd -b:v 6450k -pass 1 out. avi "img_series_%04d. 0 # This is the input feed where FFmpeg will send File. avi D10 into QuickTime Wrapping ffmpeg -i -vcodec copy -acodec pcm_s16le -vtag mx5p -vbsf imxdump output. For example, to remux 30 MB/sec NTSC IMX to MOV: ffmpeg -i input. A few examples: $ ffmpeg -i input. Yes, there are many unknowns here. Your input file's codecs are supported in TS container: Examine your input file with FFmpeg as follows: ffmpeg -i input. avi * Record camera's output to a avi file >> mencoder -tv device=/dev/video1 tv:// -ovc copy -o video. You are likely suffering from an option ordering problem. Downsize with another app (imagemagick?) and then encode that result. # ffmpeg -f video4linux2 -y -input_format mjpeg -framerate 25 -video_size 640x480 -i /dev/video0. 本文地址:IT屋 » ffmpeg为MJPEG编码生成更高质量的图像. That it worked in the past was actually a bug. mkv $ ffmpeg -i input. -map -v Then, ignore all video streams including cover art. Jun 21, 2017 · ffmpeg实现mjpeg摄像头的采集-预览-拍照 时间: 2017-06-21 21:57:00 阅读: 644 评论: 0 收藏: 0 [点我收藏+] 标签: effort tmp trie base dump bre break url bit. $ ffmpeg -f alsa -itsoffset 0. So, we're going to use the dshow FFmpeg input source. then extract subtitles: ffmpeg -i input. And yet it will introduce about 4 seconds of latency. ffmpeg -i input. Defaults to using x11grab, but also supports other input formats. Setup Guide: Raspberry Pi | MJPEG Streamer Install & Setup & FFMpeg Recording · cncjs/cncjs Wiki · GitHub. and provide an up-front option for the user to choose if they want this restriction or not. This integration supports all FFmpeg versions since 3. I have a command for routing audio input to output, it's about as basic as it gets: ffmpeg -f alsa -acodec pcm_s32le -i hw:3,0 -f pulse out. ffmpeg -y -vsync 0 -c:v h264_mludec -i input_1920x1080. /ffmpeg -i a_video. But that doesn't. flv but actually the video. on windows d:\ffmpegfolder\ffmpeg. You'll have to downsize the video and then convert. mjpeg': Metadata: encoder : Lavf57. 0 MaxHTTPConnections 2000 MaxClients 1000 MaxBandwidth 500000 CustomLog - NoDaemon RTSPPort 7654 RTSPBindAddress 0. Make MJPEG video in MOV container: ffmpeg -i input. The MJPEG encoder does not use -crf and -preset; these are "private" options for some encoders. ffm # video stream. This is a thin wrapper around FFmpeg and has no other dependencies. The individual frames can be extracted without loss, e. DirectShow is used here to encode and decode mjpeg. [mjpeg @ 0x3ec3500] Format mjpeg detected only with low score of 25, misdetection possible! Input #0, mjpeg, from '. Audacity does this without any noticeable latency (and i think you can even set the buffer size) Using pulse as both. Creating MJPEG with FFmpeg. Please note that this filter is auto-inserted for MPEG-TS (muxer mpegts) and raw H. Screen recording function using FFmpeg. As you can see, the input is set to "rawvideo (YUY2 / 0x32595559)" mode (which is wrong) and frame size is set to 640x480 (which is correct). You are likely suffering from an option ordering problem. mxf -c copy -bsf:v imxdump -tag:v mx3n output. mkv -map 0:0 -map 0:2 tmp. This is the details --Video Codec - MJPEG Audio - No Audio ( I've converted my audio to WAV as a separate file) Format - AVI. MJPEG stream from Webcam using FFServer and FFMpeg - ffserver. mkv -pix_fmt yuv420p -c:v libx264 -crf 14 -g 1 -preset faster -an outputFile. Jan 18, 2016 · Re: ffmpeg Encoder (codec mjpeg) not found for output stream #0:0. mkv -vf scale=1280x720 output. ffmpeg摄像头视频采集 音频采集的正确参数(ffmpeg mjpeg) 2019-07-13 16:30 发布 生成海报 站内文章 / DSP. Also, be sure to change input. This restriction is not to please or annoy users, but imposed by lawyers. FFmpeg has a lot of options/parameters and sometimes these can get quite convoluted, so we will go through the most. In time-lapse movies, you basically set up your camera to take a picture and then go. With the Raspberry Pi, you’ll want to use the built in hardware encoder, h264_omx. MJPEG in Highest Quality ffmpeg -i -vcodec mjpeg -qscale 1 -an output. I suggest you try moving '-vcodec mjpeg' to just before 'test. can do this easily from command line. avi "img_series_%04d. FFmpeg can take input from Directshow devices on our windows computer. #5523 defect: mjpeg: fix decoding of lead jpeg lossless (open) #5637 defect: Wrong polarity for mjpeg in avi (new) #6113 defect: Seek to 0 jpeg image input file image causes eof of the input stream (open) #6945 enhancement: ffmpeg fails at jpeg EXIF orientation (test included) (reopened). Note, if your video is in MJPEG format then see #MJPEG for even better best quality still image extraction. /ffmpeg -i a_video. mov -c:v mjpeg -q:v 3 -an output. /MOBILE_352x288_30_orig_01. mjpeg': Duration: N/A, bitrate: N/A Stream #0:0: Video: mjpeg, yuvj422p(pc, bt470bg/unknown/unknown), 1280x720, 25 tbr, 1200k tbn, 25 tbc Output #0, mjpeg, to 'out. For example, to remux 30 MB/sec NTSC IMX to MOV: ffmpeg -i input. Make MJPEG video in MOV container: ffmpeg -i input. mov mjpeg2jpeg Convert MJPEG/AVI1 packets to full JPEG/JFIF packets. #5523 defect: mjpeg: fix decoding of lead jpeg lossless (open) #5637 defect: Wrong polarity for mjpeg in avi (new) #6113 defect: Seek to 0 jpeg image input file image causes eof of the input stream (open) #6945 enhancement: ffmpeg fails at jpeg EXIF orientation (test included) (reopened). After about 5 minutes of running ffmpeg, it will crash. avi And the beauty of the thing is that you can convert the video back to a series a pictures: ffmpeg -i video. FFMPEG-摄像头采集保存YUV. mov -c:v mjpeg -q:v 3 -an output. mxf -c copy -bsf:v imxdump -tag:v mx3n output. Further testing shows that setting various default frame sizes, using v4l2-ctl, is properly detected in FFmpeg, but input pixel_format of H264/MJPG is not. I followed the patch to get a version of ffmpeg that also works with v4l2 to input my hdmi stream from my desktop and stream to twitch. FFmpeg Webcam Video Capture - Windows. If you want to encode in mjpeg with highest quality command line is: ffmpeg -r 25 -start_number 1 -f image2 -i "img_%04d. So, we're going to use the dshow FFmpeg input source. 0 MaxClients 10 MaxBandwidth 10000 CustomLog - File /tmp/feed1. 264 stream to mpegts format with ffmpeg, you can use the command: ffmpeg -i INPUT. Under the hood, FFmpeg include libAV, which is the API that allows you to do all of this stuff, and much more, programatically. Which may happen if at the receiving end, ffmpeg thinks there are two frames in a packet. The default built-in camera on Windows generally supports two codec formats: rawvideo and mjpeg. avi D10 into QuickTime Wrapping ffmpeg -i -vcodec copy -acodec pcm_s16le -vtag mx5p -vbsf imxdump output. The MJPEG encoder does not use -crf and -preset; these are "private" options for some encoders such as libx264, libx265, and libvpx. mp4 -vf subtitles=subs. [mjpeg @ 0x3bae5a0] Changing bps to 8 Input #0, mjpeg, from 'bitstream_filter_test. avi And the beauty of the thing is that you can convert the video back to a series a pictures: ffmpeg -i video. [mjpeg @ 0x3ec3500] Format mjpeg detected only with low score of 25, misdetection possible! Input #0, mjpeg, from '. Today I had an interesting problem with `ffmpeg` and Video-Timing. then hardcode subtitle in mp4 : ffmpeg -i tmp. When you configure your FFmpeg build, all the supported input devices are enabled by default. #5523 defect: mjpeg: fix decoding of lead jpeg lossless (open) #5637 defect: Wrong polarity for mjpeg in avi (new) #6113 defect: Seek to 0 jpeg image input file image causes eof of the input stream (open) #6945 enhancement: ffmpeg fails at jpeg EXIF orientation (test included) (reopened). Also, be sure to change input. mkv -pix_fmt yuv420p -c:v libx264 -crf 14 -g 1 -preset faster -an outputFile. i use: ffmpeg -f mjpeg -r 25 -i "http://192. mxf -c copy -bsf:v imxdump -tag:v mx3n output. #5523 defect: mjpeg: fix decoding of lead jpeg lossless (open) #5637 defect: Wrong polarity for mjpeg in avi (new) #6113 defect: Seek to 0 jpeg image input file image causes eof of the input stream (open) #6945 enhancement: ffmpeg fails at jpeg EXIF orientation (test included) (reopened). 0 MaxClients 10 MaxBandwidth 10000 CustomLog - File /tmp/feed1. mkv $ ffmpeg -f v4l2 -framerate 25 -video_size 640x480 \ -i /dev/video0 -t 00:00:10 output. mkv -target pal-dvd -b:v 6450k -pass 1 out. ffmpeg -f video4linux2 -input_format mjpeg -video_size 1280x720 -i /dev/video0 -vframes 1 -f mjpeg - Note: ffmpeg currently does not support setting the bitrate of v4l2 devices see bug report - call v4l2-ctl --set-ctrl video_bitrate=300000 instead (setting to 300k). Creating a video from images is very useful, especially when you indulge in stop-motion photography or into time-lapse movies. The format option may be needed for raw input files. avi * Record camera's output to a avi file >> mencoder -tv device=/dev/video1 tv:// -ovc copy -o video. Community ♦. Hi, I would like to convert my video files with --Video codec - MJPEGAudio Codec - WAV Which is the best file format for this duo ? Why I am asking this because, ‌The format I use earlier was avi. We usually clamp those devices between a Speaker-Notebook and a Projector, so that we can have ie. ffmpeg -i input. mpg $ ffmpeg -i Sherlock\ S01E01\ sample. Lossless h264-i input. It is widely used for format transcoding, basic editing (trimming and. In Raw/yuyv422 mode two. mkv -map 0:s:1 subs. For example to compute the CRC of the input audio converted to PCM unsigned 8-bit and the input video converted to MPEG-2 video, use the command: ffmpeg -i INPUT -c:a pcm_u8 -c:v mpeg2video -f crc -. 101 Stream #0:0: Video: mjpeg, yuvj422p, 1280x720, q=2-31, 25. Ah! I did not realize that ALAC used planar encoding (s16p, s32p). You'll have to downsize the video and then convert. ffmpeg reads from an arbitrary number of input "files" (which can be regular files, pipes, network streams, grabbing devices, etc. Creating a video from images is very useful, especially when you indulge in stop-motion photography or into time-lapse movies. Do this in Audacity and it is instant. mxf -c copy -bsf:v imxdump -tag:v mx3n output. jpg, images_0003. I don't see any quality issues with out. #9287: MJPEG regression -----+----- Reporter: Carl Eugen | Type: defect Hoyos | Status: new | Priority: important Component: avcodec | Version: git- Keywords: mjpeg. The individual frames can be extracted without loss, e. mp4 Lossy good-enough h264-i input. No matter what I do to ensure a 60 fps input stream it seems like many frames are being ignored and can only achieve about 9-100 fps. I have a command for routing audio input to output, it's about as basic as it gets: ffmpeg -f alsa -acodec pcm_s32le -i hw:3,0 -f pulse out. mjpeg is a raw stream, so ffmpeg has to assign a framerate if one isn't manually supplied. mp4 The first use of framerate is setting 25 fps for the input, but I think you need to actually specifty a playback rate for the output since it can't be inferred from the jpegs (unlike when copying or transcoding another video source). Audacity does this without any noticeable latency (and i think you can even set the buffer size) Using pulse as both. ffm Format rtp VideoCodec libx264 VideoFrameRate 15 VideoBufferSize 40 VideoBitRate 3000. Other points that show that I think this is a real problem: I get the same result in code and on the command line. So, we're going to use the dshow FFmpeg input source. Defaults to using x11grab, but also supports other input formats. avi D10 into QuickTime Wrapping ffmpeg -i -vcodec copy -acodec pcm_s16le -vtag mx5p -vbsf imxdump output. Then the tuning would have to be done for your camera's exact requirements, such as probably change the audio codec from mp3 to PCM, and also the resolution. See full list on openbase. $ ffmpeg -i Sherlock\ S01E01\ sample. mp4 Prores HQ. Then, it will display the list:. When you configure your FFmpeg build, all the supported input devices are enabled by default. io, progressive mp4, native hls, hls. FFmpeg can take input from Directshow devices on our windows computer. FFmpeg is a free and open-source software project consisting of a suite of libraries and programs for handling video, audio, and other multimedia files and streams. Minimize audio input latency? I have a command for sending the input to the output, it's about as basic as it gets: ffmpeg -f alsa -acodec pcm_s32le -i hw:3,0 -f pulse out. As I flick through the resulting images sections of the frames (corresponding the inputs to the hstack) clearly remain the same between frames sometimes. webcam html5+PHP 实现网站调用摄像头拍照,存储照片和照片预览功能. The MJPEG encoder does not use -crf and -preset; these are "private" options for some encoders. jpg - Gyan Mar 25 '17 at 5:24. 8kbits/s speed=0. mkv $ ffmpeg -i input. Then, it will display the list:. avi D10 into QuickTime Wrapping ffmpeg -i -vcodec copy -acodec pcm_s16le -vtag mx5p -vbsf imxdump output. avi "img_series_%04d. The lowest end to end latency I have seen is 400-500ms. Quick commands for encoding video-only source footage. mkv $ ffmpeg -f v4l2 -framerate 25 -video_size 640x480 \ -i /dev/video0 -t 00:00:10 output. ffmpeg -i -vcodec mjpeg -o. m4a Use ffmpeg to convert an audio file to CBR 64k kbps AAC, using the High-Efficiency AAC profile: ffmpeg -i input. But I have found that if I specify the audio input stream before the video input stream then the audio is delayed, about half a second behind the video. Setup Guide: Raspberry Pi | MJPEG Streamer Install & Setup & FFMpeg Recording · cncjs/cncjs Wiki · GitHub. Hi all, I am trying to take an mjpeg stream as the input of the ffmpeg like this: var request = require("request"), ffmpeg = require('fluent-ffmpeg'); var stream = request('ht. 264 stream to mpegts format with ffmpeg, you can use the command: ffmpeg -i INPUT. FFmpeg can do this easily if the input is fed as a sequence of images that have been named in an appropriate and easy-to-parse manner. mkv -vf scale_yuv2yuv_mlu=320:240:0 -c:v h264_mluenc output_320x240. See the options -qscale:v or the alias -q:v for ffmpeg. When you configure your FFmpeg build, all the supported input devices are enabled by default. For example, to remux 30 MB/sec NTSC IMX to MOV: ffmpeg -i input. avi D10 into QuickTime Wrapping ffmpeg -i -vcodec copy -acodec pcm_s16le -vtag mx5p -vbsf imxdump output. And yet it will introduce about 4 seconds of latency. As you can see, the input is set to "rawvideo (YUY2 / 0x32595559)" mode (which is wrong) and frame size is set to 640x480 (which is correct). MJPEG is a video codec wherein each video frame is essentially a JPEG image. Do this in Audacity and it is instant. I have a command for routing audio input to output, it's about as basic as it gets: ffmpeg -f alsa -acodec pcm_s32le -i hw:3,0 -f pulse out. FileMaxSize 1G # Maximum file size for. 0; if you have an older version, please update. /MOBILE_352x288_30_orig_01. Apr 5, 2016. Using the -t 10 option to only dump 10 seconds (the input videos are an hour. When using ffmpeg to compress a video, I recommend using the libx264 codec, from experience it has given me excellent quality for small video sizes. mpg $ ffmpeg -i Sherlock\ S01E01\ sample. ffmpeg -f v4l2 -input_format mjpeg -i /dev/video0 -c:v copy output. We usually clamp those devices between a Speaker-Notebook and a Projector, so that we can have ie. if someone know how to do this in 1 command or can explain me why my first command doesn't work ! thx by advance. MJPEG is a video codec wherein each video frame is essentially a JPEG image. Using ffmpeg to convert a set of images into a video. wav -codec:a libfdk_aac -vbr 3 output. To list the PulseAudio source devices and their properties you can invoke the command pactl list sources. 0 -f v4l2 /dev/video0 Video file (MP4) to virtual camera ffmpeg -re -i input. conf: Port 8099 NoDaemon BindAddress 0. pete says: October 30, 2012 at 5:29 pm. Default fps is 25 but yours shows as 50. m4a Use ffmpeg to convert an audio file to CBR 64k kbps AAC, using the High-Efficiency AAC profile: ffmpeg -i input. Further testing shows that setting various default frame sizes, using v4l2-ctl, is properly detected in FFmpeg, but input pixel_format of H264/MJPG is not. mov: @end example: @section mjpeg2jpeg: Convert MJPEG/AVI1 packets to full JPEG/JFIF packets. If you instead had a webcam that only supported mjpeg input, or if you needed to add text overlay to the video, you would have to recompile FFmpeg. ffmpeg -i -vcodec mjpeg -o. ffmpeg -i input. Call the FFmpeg executable file from the command line: (1). Also, be sure to change input. 264 video and AAC sound, you can simply copy the streams across: ffmpeg -i input. h264 ffmpeg -y -vsync 0 -c:v h264_mludec -i input_1920x1080. mov -c:v mjpeg -q:v 3 -an output. (libavcodec/mmaldec. mp4 -qscale:v 1 frame-%04d. mxf -c copy -bsf:v imxdump -tag:v mx3n output. If you instead had a webcam that only supported mjpeg input, or if you needed to add text overlay to the video, you would have to recompile FFmpeg. Today I had an interesting problem with `ffmpeg` and Video-Timing. 1:8090/?action=stream" -an -vcodec flv -r 25 -q 1 video. Further testing shows that setting various default frame sizes, using v4l2-ctl, is properly detected in FFmpeg, but input pixel_format of H264/MJPG is not. Call the FFmpeg executable file from the command line: (1). mp4 If the file contains codecs that are well supported in a TS container, for example H. It currently includes 6 different types of output streaming which are mjpeg, jpeg via socket. ffmpeg -i input. io, progressive mp4, native hls, hls. m2v -r 24 output. Its primary use case is providing screen recordings for remote Webdriver tests, e. So, we're going to use the dshow FFmpeg input source. mp4 Lossy good-enough h264-i input. ffmpeg -y -vsync 0 -c:v h264_mludec -i fhd_input. mov -c:v mjpeg -q:v 3 -huffman optimal -an output. Under the hood, FFmpeg include libAV, which is the API that allows you to do all of this stuff, and much more, programatically. avi * Record camera's output to a avi file >> mencoder -tv device=/dev/video1 tv:// -ovc copy -o video. FFmpeg can do this easily if the input is fed as a sequence of images that have been named in an appropriate and easy-to-parse manner. OpenCv + ffmpeg + rtmp 实现摄像头采集数据直播功能. 264 stream to mpegts format with ffmpeg, you can use the command: ffmpeg -i INPUT. You can get the video device connected on Windows, the command is as follows:. mp4 Prores HQ. Lossless h264-i input. mpg $ ffmpeg -i Sherlock\ S01E01\ sample. We usually clamp those devices between a Speaker-Notebook and a Projector, so that we can have ie. -map -v Then, ignore all video streams including cover art. Creating MJPEG with FFmpeg. FFmpeg can take input from Directshow devices on our windows computer. jpg) is YUV444 correctly identified by ffmpeg -i 15. jpg # or the alias: ffmpeg -i input. I know that argument order has an effect in FFmpeg. mov mjpeg2jpeg Convert MJPEG/AVI1 packets to full JPEG/JFIF packets. DirectShow is used here to encode and decode mjpeg. ), specified by the -i option, and writes to an arbitrary number of output "files", which are specified by a plain output url. Compressed: mjpeg : Motion-JPEG : 640x480 160x90 160x120 176x144 320x180. We can check what devices are available on our machine using the following command: ffmpeg -list_devices true -f dshow -i dummy. record screen ffmpeg x11grab mjpeg. # ffmpeg -f video4linux2 -y -input_format mjpeg -framerate 25 -video_size 640x480 -i /dev/video0. So, we're going to use the dshow FFmpeg input source. Setup Guide: Raspberry Pi | MJPEG Streamer Install & Setup & FFMpeg Recording · cncjs/cncjs Wiki · GitHub. If you want to encode in mjpeg with highest quality command line is: ffmpeg -r 25 -start_number 1 -f image2 -i "img_%04d. To enable this output device you need to configure FFmpeg with "--enable-libpulse". ffmpeg -framerate 25 -pattern_type glob -i '*. For example to remux an MP4 file containing an H. png" ffmpeg -i video. That includes capture latency also. mov -c:v mjpeg -q:v 3 -an output. 0 MaxHTTPConnections 2000 MaxClients 1000 MaxBandwidth 500000 CustomLog - NoDaemon RTSPPort 7654 RTSPBindAddress 0. jpg 2>&1 | grep clone $ # no output - no threads cloned. It currently includes 6 different types of output streaming which are mjpeg, jpeg via socket. Having said that, the MMAL decoder would probably only need a half-dozen lines of code added to support it, mainly setting up format_in->encoding in ffmmal_init_decoder, and a FFMMAL_DEC definition at the end of the file. mp4 Prores HQ. See full list on openbase. See full list on noah. conf: Port 8099 NoDaemon BindAddress 0. Creating a video from images is very useful, especially when you indulge in stop-motion photography or into time-lapse movies. We usually clamp those devices between a Speaker-Notebook and a Projector, so that we can have ie. mjpeg': Duration: N/A, bitrate: N/A Stream #0:0: Video: mjpeg, 1 reference frame, yuvj420p(pc, bt470bg/unknown/unknown, center), 352x288 [SAR 1:1 DAR 11:9], 25 tbr, 1200k tbn, 25 tbc. mkv $ ffmpeg -f v4l2 -framerate 25 -video_size 640x480 \ -i /dev/video0 -t 00:00:10 output. Creating MJPEG with FFmpeg. FileMaxSize 1G # Maximum file size for. $ ffmpeg -i Sherlock\ S01E01\ sample. Make MJPEG video in MOV container: ffmpeg -i input. mkv and outputFile as needed for your file. MJPEG is a video codec wherein each video frame is essentially a JPEG image. Do this in Audacity and it is instant. /MOBILE_352x288_30_orig_01. ffmpeg normally checks the console input, for entries like "q" to stop and "?" to give help, while performing operations. Hi all, I am trying to take an mjpeg stream as the input of the ffmpeg like this: var request = require("request"), ffmpeg = require('fluent-ffmpeg'); var stream = request('ht. mxf -c copy -bsf:v imxdump -tag:v mx3n output. jpg" -vcodec mjpeg -qscale 1 video. Also, be sure to change input. Minimize audio input latency? I have a command for sending the input to the output, it's about as basic as it gets: ffmpeg -f alsa -acodec pcm_s32le -i hw:3,0 -f pulse out. mkv -target pal-dvd -b:v 6450k -pass 2 out. This is a thin wrapper around FFmpeg and has no other dependencies. There are felt one million additional options to change the output format. mkv -target pal-dvd -b:v 6450k -pass 1 out. ffmpeg -f v4l2 -input_format mjpeg -i /dev/video0 -c:v copy output. avi "img_series_%04d. Original 2012-11-16, Updated 2016-04-05: cleanup and information about overlaying images. on windows d:\ffmpegfolder\ffmpeg. by: @example: ffmpeg -i. If you instead had a webcam that only supported mjpeg input, or if you needed to add text overlay to the video, you would have to recompile FFmpeg. I don't see any quality issues with out. Then, it will display the list:. This is the details --Video Codec - MJPEG Audio - No Audio ( I've converted my audio to WAV as a separate file) Format - AVI. mp4 -codec copy -bsf:v h264_mp4toannexb OUTPUT. As I flick through the resulting images sections of the frames (corresponding the inputs to the hstack) clearly remain the same between frames sometimes. Audacity does this without any noticeable latency (and i think you can even set the buffer size) Using pulse as both. Dec 14, 2019 · FFmpeg解码USB摄像头MJPEG输出. # ffmpeg -f video4linux2 -y -input_format mjpeg -framerate 25 -video_size 640x480 -i /dev/video0. ffmpeg does not have a way of detecting when it is running as a background task. 0 RTSPPort 5004 RTSPBindAddress 0. I followed the patch to get a version of ffmpeg that also works with v4l2 to input my hdmi stream from my desktop and stream to twitch. jpg Note that some people say to use 1 for the quality value, but others say to. Other points that show that I think this is a real problem: I get the same result in code and on the command line. record screen ffmpeg x11grab mjpeg. 101 Stream #0:0: Video: mjpeg, yuvj422p, 1280x720, q=2-31, 25. mkv -target pal-dvd -b:v 6450k -pass 1 out. i use: ffmpeg -f mjpeg -r 25 -i "http://192. ffplay does not support displaying YUV444 and therefore has to convert YUV444 to YUV420 before displaying (this is not a bug in the jpg decoder, but a limitation of ffplay), mplayer -vo gl for example allows to display YUV444 with libavcodec. The lowest end to end latency I have seen is 400-500ms. 264 encoding the -crf and -preset flags generate higher quality. ffmpeg reads from an arbitrary number of input "files" (which can be regular files, pipes, network streams, grabbing devices, etc. jpg" -vcodec mjpeg -qscale 1 video. For cameras that have an API you can opt to not use the cameras stream and use FFmpeg instead should you run out of available streams. For example, to remux 30 MB/sec NTSC IMX to MOV: ffmpeg -i input. mkv $ ffmpeg -i input. Please provide an input sample that allows to reproduce quality issues for the output file. mp4 -q:v 1 frame-%04d. mp4 -codec copy -bsf:v h264_mp4toannexb OUTPUT. mkv -vf scale=1280:720 -c:a copy -c:v h264_mluenc -b:v 2M output1. Example for desktop using x11grab: ffmpeg -f x11grab -framerate 15 -video_size 1280x720 -i :0. This integration supports all FFmpeg versions since 3. for blueimp/wdio. You can see private options like this: ffmpeg -h encoder=mjpeg. PacketInputAdapter provides directly video packets input (H. Any player based on ffmpeg/libav will likely fail if ffmpeg does. FFmpeg Webcam Video Capture - Windows. mov Output a series of JPG images: ffmpeg -i input. Then, it will display the list:. mp4 -vf subtitles=subs. mp4 Same as above but manually choose frame rate and video size (v4l2-ctl --list-formats-ext for available frame rate and video sizes): ffmpeg. /some_mjpeg. That it worked in the past was actually a bug. Jan 22, 2018 · Thanks to everyone who contributed and is using the software. You can get the video device connected on Windows, the command is as follows:. PacketInputAdapter provides directly video packets input (H. ffmpeg -i input. I know that argument order has an effect in FFmpeg. In Raw/yuyv422 mode two. A few examples: $ ffmpeg -i input. 1 -ar 24000 -i plughw:1 -f video4linux2 -input_format mjpeg -s 960x720 -r 5 -i /dev/video0 -map 0:. 0 MaxClients 10 MaxBandwidth 10000 CustomLog - File /tmp/feed1. And yet it will introduce about 4 seconds of latency. 3 is stable and no longer experimental - FFV1: YUVA. 8kbits/s speed=0. on the ffmpeg libraries, with about equal results. Using the -t 10 option to only dump 10 seconds (the input videos are an hour. 4 seconds delay. This integration supports all FFmpeg versions since 3. Ad the @c3voc we're using VGA/DVI-Grabber Devices that can convert between Analog and Digital or vice-versa, enforce wanted EDID Parameters and also deliver an MJPEG-Stream of the things happening on the Video-Input. In time-lapse movies, you basically set up your camera to take a picture and then go. And yet it will introduce about 4 seconds of latency. ), specified by the -i option, and writes to an arbitrary number of output "files", which are specified by a plain output url. Setup Guide: Raspberry Pi | MJPEG Streamer Install & Setup & FFMpeg Recording · cncjs/cncjs Wiki · GitHub. Apr 5, 2016. Since your input is MJPEG, you can try to losslessly extract the frames as an image sequence. Since these are just two input streams combined together for the output, why does the order have an effect?. Still it seems that the s16 option would provide ffmpeg with enough of a clue to 'do the right thing' given that it knows the conversion is to ALAC. ffmpeg -i in. and provide an up-front option for the user to choose if they want this restriction or not. mp4 If the file contains codecs that are well supported in a TS container, for example H. You can see private options like this: ffmpeg -h encoder=mjpeg. Please try again. I know that argument order has an effect in FFmpeg. Usually, those would be pair of interlaced pictures. FFmpeg Webcam Video Capture. ffmpeg -i input. I am using FFmpeg to stream from a webcam and a pulseaudio source to an RTMP server. 4 seconds delay. So, we're going to use the dshow FFmpeg input source. 264 (muxer h264) output formats. MJPEG Server implements MJPEG over HTTP using FFmpeg or any other input source capable of piping a multipart JPEG stream to stdout. If you instead had a webcam that only supported mjpeg input, or if you needed to add text overlay to the video, you would have to recompile FFmpeg. And yet it will introduce about 4 seconds of latency. 0 MaxHTTPConnections 2000 MaxClients 1000 MaxBandwidth 500000 CustomLog - NoDaemon RTSPPort 7654 RTSPBindAddress 0. mpeg -f mpegts - | mplayer -analyzeduration 10 -f mpegts - # Adjusting camera functions # Brightness, zoom, focus, etc, can be adjusted with v4l2-ctl. ffmpeg -i input. I'm trying to stream h264 video from my Logitech C920 webcam. Minimize audio input latency? I have a command for sending the input to the output, it's about as basic as it gets: ffmpeg -f alsa -acodec pcm_s32le -i hw:3,0 -f pulse out. But in any case, this seems to have resolved the issue as Sonos now plays it. "The Pi supports hardware accelerated MJPEG via IL or MMAL, but FFMPEG doesn't. If you want to encode in mjpeg with highest quality command line is: ffmpeg -r 25 -start_number 1 -f image2 -i "img_%04d. Its primary use case is providing screen recordings for remote Webdriver tests, e. FFmpeg is a free and open-source software project consisting of a suite of libraries and programs for handling video, audio, and other multimedia files and streams. MJPEG in Highest Quality ffmpeg -i -vcodec mjpeg -qscale 1 -an output. mjpeg': Metadata: encoder : Lavf57. This integration supports all FFmpeg versions since 3. For example to remux an MP4 file containing an H. GDICapture provides screen capturing for video input and wave recording for audio input. It can re-encode videos and join, merge or split videos at ones will. But in any case, this seems to have resolved the issue as Sonos now plays it. See the options -qscale:v or the alias -q:v for ffmpeg. That includes capture latency also. Hi, I would like to convert my video files with --Video codec - MJPEG. ffmpeg normally checks the console input, for entries like "q" to stop and "?" to give help, while performing operations. mkv and outputFile as needed for your file. mp4 Lossy good-enough h264-i input. MJPEG in Highest Quality ffmpeg -i -vcodec mjpeg -qscale 1 -an output. If you instead had a webcam that only supported mjpeg input, or if you needed to add text overlay to the video, you would have to recompile FFmpeg. I have a command for routing audio input to output, it's about as basic as it gets: ffmpeg -f alsa -acodec pcm_s32le -i hw:3,0 -f pulse out. mpg $ ffmpeg -i Sherlock\ S01E01\ sample. mp4 as the GIF in this example loops infinitely. ffmpeg -i -vcodec mjpeg -qmin 1 -qmax 1 -o ffmpeg -i -vcodec mjpeg -qscale 1 For the second example, I found a note that mentioned that the -qscale switch made a noticeable difference. I am making a mp4 video while using this command from downloaded jpegs, everything is working fine but the video is not being played in VLC but in Media Player, default one of Ubuntu. There are felt one million additional options to change the output format. FFmpeg is a powerful tool compatible with major Operating Systems (Linux, Mac, Windows). You can test this first on a sample file to see if it works. A few examples: $ ffmpeg -i input. So, we're going to use the dshow FFmpeg input source. To help pin point the problem I used mjpeg streaming for comparison. To force the frame rate of the input file (valid for raw formats only) to 1 fps and the frame rate of the output file to 24 fps: ffmpeg -r 1 -i input. This is not possible from a legal point of view, AIUI. If you are running Home Assistant Core in a Python environment, you’ll need have the ffmpeg binary in your system path. $ ffmpeg -f alsa -itsoffset 0. Community ♦. The individual frames can be extracted without loss, e. Oct 23, 2017 · ffmpeg -i input. wav -c:a libfdk_aac -profile:a aac_he -b:a 64k output. Now run ffmpeg. mpg $ ffmpeg -i Sherlock\ S01E01\ sample. Using the command ffmpeg -f video4linux2 -list_formats all -i /dev/video0 to retrieve the sizes of video available lists the same set of sizes for h264 and mjpeg. Quick commands for encoding video-only source footage. FFmpeg Webcam Video Capture - Windows. Downsize with another app (imagemagick?) and then encode that result. mxf -c copy -bsf:v imxdump -tag:v mx3n output. mpeg -f mpegts - | mplayer -analyzeduration 10 -f mpegts - # Adjusting camera functions # Brightness, zoom, focus, etc, can be adjusted with v4l2-ctl. 0 RTSPPort 5004 RTSPBindAddress 0. I suggest you try moving '-vcodec mjpeg' to just before 'test. mpg $ ffmpeg -i Sherlock\ S01E01\ sample. You can list all available ones using the configure option "–list-indevs". mkv $ ffmpeg -i input. h264 ffmpeg -y -vsync 0 -c:v h264_mludec -i input_1920x1080. FFMPEG-摄像头采集保存YUV. ffmpeg -i -vcodec mjpeg -qmin 1 -qmax 1 -o ffmpeg -i -vcodec mjpeg -qscale 1 For the second example, I found a note that mentioned that the -qscale switch made a noticeable difference. mov -c:v mjpeg -q:v 3 -huffman optimal -an output. MJPEG stream from Webcam using FFServer and FFMpeg - ffserver. Under the hood, FFmpeg include libAV, which is the API that allows you to do all of this stuff, and much more, programatically. mov mjpeg2jpeg Convert MJPEG/AVI1 packets to full JPEG/JFIF packets. MJPG-streamer takes JPGs from Linux-UVC compatible webcams, filesystem or other input plugins and streams them as M-JPEG via HTTP to webbrowsers, VLC and other software. Please try again. ffmpeg -i input. mkv -target pal-dvd -b:v 6450k -pass 2 out. mp4 -codec copy -bsf:v h264_mp4toannexb OUTPUT. And yet it will introduce about 4 seconds of latency. It should have forced ffmpeg to treat the input as mjpeg. $ ffmpeg -i Sherlock\ S01E01\ sample. FFmpeg can do this easily if the input is fed as a sequence of images that have been named in an appropriate and easy-to-parse manner. At its core is the command-line ffmpeg tool itself, designed for processing of video and audio files. MJPEG stream from Webcam using FFServer and FFMpeg - ffserver. If you instead had a webcam that only supported mjpeg input, or if you needed to add text overlay to the video, you would have to recompile FFmpeg. /MOBILE_352x288_30_orig_01. 264 (muxer h264) output formats. jpg' -c:v libx264 -r 25 -pix_fmt yuv420p out. The diagram below shows the number of concurrent 1920x1080p30 FFmpeg transcodes on a single Intel® Xeon® processor E3-1285L v4. This integration supports all FFmpeg versions since 3. Since these are just two input streams combined together for the output, why does the order have an effect?. I have a command for routing audio input to output, it's about as basic as it gets: ffmpeg -f alsa -acodec pcm_s32le -i hw:3,0 -f pulse out. MJPEG is a video codec wherein each video frame is essentially a JPEG image. wav -c:a libfdk_aac -profile:a aac_he -b:a 64k output. mjpeg stream. Also, be sure to change input. Jun 21, 2017 · ffmpeg实现mjpeg摄像头的采集-预览-拍照 时间: 2017-06-21 21:57:00 阅读: 644 评论: 0 收藏: 0 [点我收藏+] 标签: effort tmp trie base dump bre break url bit. mxf -c copy -bsf:v imxdump -tag:v mx3n output. mjpeg': Duration: N/A, bitrate: N/A Stream #0:0: Video: mjpeg, 1 reference frame, yuvj420p(pc, bt470bg/unknown/unknown, center), 352x288 [SAR 1:1 DAR 11:9], 25 tbr, 1200k tbn, 25 tbc. Now run ffmpeg. A few examples: $ ffmpeg -i input. 264: ffmpeg -f v4l2 -input_format yuyv422 -i /dev/video0 -c:v libx264 -vf format=yuv420p output. io, progressive mp4, native hls, hls. mp4 Lossy good-enough h264-i input. mp4 Same as above but manually choose frame rate and video size (v4l2-ctl --list-formats-ext for available frame rate and video sizes): ffmpeg. If you want to encode in mjpeg with highest quality command line is: ffmpeg -r 25 -start_number 1 -f image2 -i "img_%04d. Rawvideo is used by default when calling the FFmpeg interface. Yes, there are many unknowns here. conf: Port 8099 NoDaemon BindAddress 0.